Skip to main content

Dopapod Live at Wormtown Music Festival 2010 Camp Keewanee on 2010-09-18

by Dopapod

Topics wormfest2010


Disc 1:
Set 1:

01 Intro
02 Indian Train
03 Turnin' Knobs>
04 Eight Years Ended
05 In Bloom*>
06 Rap&>
07 In Bloom*
08 Black & White
09 Happy Song>
10 Freight Train Filled With Dynamite

Disc 2:
Set 1 cont…

11 Roid Rage
12 Groundhogs Day^
13 Flipped
14 Onionhead>
15 TNT@>
16 Onionhead>
17 Nuggy Jawson
18 Robot Rock$
19 Rage Against The Machine Medley


Disc 3:
Set 1 cont…

20 Ain't It Funky
21 Bats In The Cave>
22 Rap#>
23 Bats In The Cave
24 Ellemenno
25 Off The Cuff
26 Closer%
27 Led Zeppelin Medley

* - Nirvana
& - Force from the Alchemystics
^ - Primus
@ - AC/DC
$ - Daft Punk
# - Tubby Love
% - NIN


Collection Dopapod
Band/Artist Dopapod
Venue Wormtown Music Festival 2010 Camp Keewanee
Location Greenfield, MA

Source Schoeps MK22>KC5>CMC6>Sonosax SX-M2>Apogee Mini-me(aes out,24bit/96khz)>COAX>Edirol R-44 + Soundboard>R-44
Lineage SDHC Card>USB>Macbook Pro>Audacity(mixing)>Wave Editor(tracking,fades,resample(izotope)/dither(mbit+)to 16 bit/44.1k)>XAct(FLAC 8,ffp,fix sbe)
Taped by Andy Murray
Transferred by Andy Murray

Notes

Dopapod
2010-09-18
Wormtown Music Festival
Camp Keewanee
Greenfield, MA
Wormtown Cabin Late Night

Recorded and transferred by Andy Murray

Mics were hung DFC 10' from PA
Schoeps MK22>KC5>CMC6>Sonosax SX-M2>Apogee Mini-me(aes out 24bit/96khz)>COAX>Edirol R-44 + Soundboard feed>R-44
SDHC Card>usb>Macbook Pro>Audacity(mixing)>Wave Editor(tracking,fades,resample(izotope)/dither(mbit+)to 16bit/44.1k)>XAct(FLAC 8,ffp,fix sbe)

In the middle of Nuggy Jawson the mini-me battery died so from that point out the source is spliced with the soundboard source

Thanks to John D. for the use of the mic cable snake

3 Discs
1 Set

length expanded size cdr WAVE problems fmt ratio filename
0:41.07 7248908 B --- -- ----- dopapod2010-09-18_mk22matrix_1644_d1t01.wav
19:08.74 202681292 B --- -- ----- dopapod2010-09-18_mk22matrix_1644_d1t02.wav
6:55.35 73288364 B --- -- ----- dopapod2010-09-18_mk22matrix_1644_d1t03.wav
12:57.16 137100476 B --- -- ----- dopapod2010-09-18_mk22matrix_1644_d1t04.wav
3:07.59 33125612 B --- -- ----- dopapod2010-09-18_mk22matrix_1644_d1t05.wav
5:52.41 62189276 B --- -- ----- dopapod2010-09-18_mk22matrix_1644_d1t06.wav
2:02.32 21596108 B --- -- ----- dopapod2010-09-18_mk22matrix_1644_d1t07.wav
8:26.73 89430140 B --- -- ----- dopapod2010-09-18_mk22matrix_1644_d1t08.wav
3:27.45 36620684 B --- -- ----- dopapod2010-09-18_mk22matrix_1644_d1t09.wav
14:41.73 155580140 B --- -- ----- dopapod2010-09-18_mk22matrix_1644_d1t10.wav
10:00.63 105988220 B --- -- ----- dopapod2010-09-18_mk22matrix_1644_d2t01.wav
10:12.57 108090908 B --- -- ----- dopapod2010-09-18_mk22matrix_1644_d2t02.wav
10:02.40 106286924 B --- -- ----- dopapod2010-09-18_mk22matrix_1644_d2t03.wav
10:27.12 110631068 B --- -- ----- dopapod2010-09-18_mk22matrix_1644_d2t04.wav
3:33.16 37610876 B --- -- ----- dopapod2010-09-18_mk22matrix_1644_d2t05.wav
0:41.08 7251260 B --- -- ----- dopapod2010-09-18_mk22matrix_1644_d2t06.wav
14:27.17 152978828 B --- -- ----- dopapod2010-09-18_mk22matrix_1644_d2t07.wav
7:58.51 84439196 B --- -- ----- dopapod2010-09-18_mk22matrix_1644_d2t08.wav
13:11.61 139675916 B --- -- ----- dopapod2010-09-18_mk22matrix_1644_d2t09.wav
11:28.18 121405580 B --- -- ----- dopapod2010-09-18_mk22matrix_1644_d3t01.wav
7:29.38 79293020 B --- -- ----- dopapod2010-09-18_mk22matrix_1644_d3t02.wav
4:57.07 52407308 B --- -- ----- dopapod2010-09-18_mk22matrix_1644_d3t03.wav
5:36.49 59385692 B --- -- ----- dopapod2010-09-18_mk22matrix_1644_d3t04.wav
9:17.44 98358332 B --- -- ----- dopapod2010-09-18_mk22matrix_1644_d3t05.wav
8:00.13 84702620 B --- -- ----- dopapod2010-09-18_mk22matrix_1644_d3t06.wav
7:11.33 76106060 B --- -- ----- dopapod2010-09-18_mk22matrix_1644_d3t07.wav
8:32.26 90377996 B --- -- ----- dopapod2010-09-18_mk22matrix_1644_d3t08.wav
220:30.33 2333850804 B 1.0000 (27 files)

Reviews

Reviewer: ShkDwnStreet - - December 30, 2011
Subject: Any respect for the archive?
I love this band, they are just a great mix of talented jammers. Keys, strings, and percussion at its grooviest. Just a warning though when listening to the first song Indian Train beware of the woman that is screaming for her life. She sounds like she is being stabbed. Lots of crazy crowd noise on the first track. Other than that great show. Definitely a download.
Reviewer: Mutha Bob - - October 8, 2010
Subject: Thanks
This set is a lot of fun!
Reviewer: LotusKid - - September 27, 2010
Subject: wtf...
This set was absolute clown shoes!! so much fun.. It was such a laaaaate night adventure!! it truly tested the heart, soul and agility of the toughest and most bad ass of the "north east" kidz... this was definitively a set for the real dopapod headz like Beast, Chad, J-wah, Nart, Nugget and Wobz to name a few!!! :)
DOWNLOAD OPTIONS
In Collection
Dopapod
In Collection
Live Music Archive
Uploaded by
andyjah
on 9/26/2010
Views
1,956
Favorites
1
Reviews
3
PEOPLE ALSO FOUND
Dopapod
by Dopapod
75
0
0
Source: Schoeps MK4>KC5>CMC6>Sonosax SX-R4(24bit/96khz)
Dopapod
by Dopapod
74
0
0
Source: Schoeps MK22>KC5>CMC6>Sonosax SX-M2>Apogee Mini-me(aes out,24bit/96khz)>COAX>Edirol R-44 + Soundboard>R-44
Dopapod
by Dopapod
51
0
0
Source: Schoeps MK4>KC5>CMC6>Sonosax SX-M2>Apogee Mini-me(aes out,24bit/96khz)>COAX>Edirol R-44
Dopapod
by Dopapod
41
0
0
Source: Schoeps MK4>KC5>CMC6>Sonosax SX-R4(24bit/96khz) & Soundboard>SX-R4
Dopapod
by Dopapod
65
0
0
Source: Schoeps MK4>KC5>CMC6>Sonosax SX-M2>Apogee Mini-me(aes out,24bit/96khz)>COAX>Edirol R-44 & Soundboard>R-44
Dopapod
by Dopapod
34
0
0
Source: Schoeps MK4>KC5>CMC6>Sonosax SX-R4(24bit/96khz)
Dopapod
by Dopapod
99
0
0
Source: Schoeps MK4>KC5>CMC6>Sonosax SX-R4(24bit/96khz) & Soundboard>R-4
Dopapod
by Dopapod
324
0
0
Source: Schoeps Mk41>KC5>CMC6>Sonosax SX-R4(24bit/96khz) & Soundboard
Dopapod
by Dopapod
79
0
0
Source: Schoeps MK4>KC5>CMC6>Sonosax SX-R4(24bit/96khz) & Soundboard>SX-R4
Dopapod
by Dopapod
41
0
0
Source: Schoeps MK41>KC5>CMC6>Sonosax SX-M2>Apogee Mini-me(aes out,24bit/96khz)>COAX>Edirol R-44 & Soundboard>R-44